<?xml version="1.0" standalone="no"?>
<!DOCTYPE svg PUBLIC "-//W3C//DTD SVG 1.1//EN" "http://www.w3.org/Graphics/SVG/1.1/DTD/svg11.dtd" >
<svg xmlns="http://www.w3.org/2000/svg">
<metadata>Generated by IcoMoon</metadata>
<defs>
<font id="tticons" horiz-adv-x="1024">
<font-face units-per-em="1024" ascent="960" descent="-64" />
<missing-glyph horiz-adv-x="1024" />
<glyph unicode="&#x20;" horiz-adv-x="512" d="" />
<glyph unicode="&#xe900;" glyph-name="edit_black_24dp" d="M599.893 575.147l39.253-39.253-386.56-386.56h-39.253v39.253l386.56 386.56zM753.493 832c-10.667 0-21.76-4.267-29.867-12.373l-78.080-78.080 160-160 78.080 78.080c16.64 16.64 16.64 43.52 0 60.16l-99.84 99.84c-8.533 8.533-19.2 12.373-30.293 12.373zM599.893 695.893l-471.893-471.893v-160h160l471.893 471.893-160 160z" />
<glyph unicode="&#xe901;" glyph-name="add_black_24dp" d="M810.667 405.333h-256v-256h-85.333v256h-256v85.333h256v256h85.333v-256h256v-85.333z" />
<glyph unicode="&#xe902;" glyph-name="post_add_black_24dp" d="M725.333 139.947h-512v521.387h298.667v85.333h-298.667c-46.933 0-85.333-38.4-85.333-85.333v-512c0-46.933 38.4-85.333 85.333-85.333h512c46.933 0 85.333 38.4 85.333 85.333v298.667h-85.333v-308.053zM810.667 874.667h-85.333v-128h-128c0.427-0.427 0-85.333 0-85.333h128v-127.573c0.427-0.427 85.333 0 85.333 0v127.573h128v85.333h-128v128zM298.667 576h341.333v-85.333h-341.333v85.333zM298.667 448v-85.333h341.333v85.333h-128zM298.667 320h341.333v-85.333h-341.333v85.333z" />
<glyph unicode="&#xe903;" glyph-name="add_circle_outline_black_24dp" d="M554.667 661.333h-85.333v-170.667h-170.667v-85.333h170.667v-170.667h85.333v170.667h170.667v85.333h-170.667v170.667zM512 874.667c-235.52 0-426.667-191.147-426.667-426.667s191.147-426.667 426.667-426.667 426.667 191.147 426.667 426.667-191.147 426.667-426.667 426.667zM512 106.667c-188.16 0-341.333 153.173-341.333 341.333s153.173 341.333 341.333 341.333 341.333-153.173 341.333-341.333-153.173-341.333-341.333-341.333z" />
<glyph unicode="&#xe904;" glyph-name="refresh_black_24dp" d="M753.067 689.067c-61.867 61.867-146.773 100.267-241.067 100.267-188.587 0-340.907-152.747-340.907-341.333s152.32-341.333 340.907-341.333c159.147 0 291.84 108.8 329.813 256h-88.747c-34.987-99.413-129.707-170.667-241.067-170.667-141.227 0-256 114.773-256 256s114.773 256 256 256c70.827 0 133.973-29.44 180.053-75.947l-137.387-137.387h298.667v298.667l-100.267-100.267z" />
<glyph unicode="&#xe905;" glyph-name="autorenew_black_24dp" d="M512 704v-128l170.667 170.667-170.667 170.667v-128c-188.587 0-341.333-152.747-341.333-341.333 0-66.987 19.627-129.28 52.907-181.76l62.293 62.293c-19.2 35.413-29.867 76.373-29.867 119.467 0 141.227 114.773 256 256 256zM800.427 629.76l-62.293-62.293c18.773-35.84 29.867-76.373 29.867-119.467 0-141.227-114.773-256-256-256v128l-170.667-170.667 170.667-170.667v128c188.587 0 341.333 152.747 341.333 341.333 0 66.987-19.627 129.28-52.907 181.76z" />
<glyph unicode="&#xe906;" glyph-name="loop_black_24dp" d="M512 789.333v128l-170.667-170.667 170.667-170.667v128c141.227 0 256-114.773 256-256 0-43.093-10.667-84.053-29.867-119.467l62.293-62.293c33.28 52.48 52.907 114.773 52.907 181.76 0 188.587-152.747 341.333-341.333 341.333zM512 192c-141.227 0-256 114.773-256 256 0 43.093 10.667 84.053 29.867 119.467l-62.293 62.293c-33.28-52.48-52.907-114.773-52.907-181.76 0-188.587 152.747-341.333 341.333-341.333v-128l170.667 170.667-170.667 170.667v-128z" />
<glyph unicode="&#xe907;" glyph-name="visibility_black_24dp" d="M512 704c161.707 0 305.92-90.88 376.32-234.667-70.4-143.787-214.613-234.667-376.32-234.667s-305.92 90.88-376.32 234.667c70.4 143.787 214.613 234.667 376.32 234.667zM512 789.333c-213.333 0-395.52-132.693-469.333-320 73.813-187.307 256-320 469.333-320s395.52 132.693 469.333 320c-73.813 187.307-256 320-469.333 320zM512 576c58.88 0 106.667-47.787 106.667-106.667s-47.787-106.667-106.667-106.667-106.667 47.787-106.667 106.667 47.787 106.667 106.667 106.667zM512 661.333c-105.813 0-192-86.187-192-192s86.187-192 192-192 192 86.187 192 192-86.187 192-192 192z" />
<glyph unicode="&#xe908;" glyph-name="preview_black_24dp" d="M810.667 832h-597.333c-47.36 0-85.333-38.4-85.333-85.333v-597.333c0-46.933 37.973-85.333 85.333-85.333h597.333c46.933 0 85.333 38.4 85.333 85.333v597.333c0 46.933-37.973 85.333-85.333 85.333zM810.667 149.333h-597.333v512h597.333v-512zM512 512c78.507 0 148.48-40.96 185.173-106.667-36.693-65.707-106.667-106.667-185.173-106.667s-148.48 40.96-185.173 106.667c36.693 65.707 106.667 106.667 185.173 106.667zM512 576c-116.48 0-215.893-70.827-256-170.667 40.107-99.84 139.52-170.667 256-170.667s215.893 70.827 256 170.667c-40.107 99.84-139.52 170.667-256 170.667v0zM512 341.333c-35.413 0-64 28.587-64 64s28.587 64 64 64 64-28.587 64-64-28.587-64-64-64z" />
<glyph unicode="&#xe909;" glyph-name="content_copy_black_24dp" d="M682.667 917.333h-512c-46.933 0-85.333-38.4-85.333-85.333v-597.333h85.333v597.333h512v85.333zM810.667 746.667h-469.333c-46.933 0-85.333-38.4-85.333-85.333v-597.333c0-46.933 38.4-85.333 85.333-85.333h469.333c46.933 0 85.333 38.4 85.333 85.333v597.333c0 46.933-38.4 85.333-85.333 85.333zM810.667 64h-469.333v597.333h469.333v-597.333z" />
<glyph unicode="&#xe90a;" glyph-name="save_alt_black_24dp" d="M810.667 448v-298.667h-597.333v298.667h-85.333v-298.667c0-46.933 38.4-85.333 85.333-85.333h597.333c46.933 0 85.333 38.4 85.333 85.333v298.667h-85.333zM554.667 419.413l110.507 110.080 60.16-60.16-213.333-213.333-213.333 213.333 60.16 60.16 110.507-110.080v412.587h85.333v-412.587z" />
<glyph unicode="&#xe90b;" glyph-name="save_black_24dp" d="M725.333 832h-512c-47.36 0-85.333-38.4-85.333-85.333v-597.333c0-46.933 37.973-85.333 85.333-85.333h597.333c46.933 0 85.333 38.4 85.333 85.333v512l-170.667 170.667zM810.667 149.333h-597.333v597.333h476.587l120.747-120.747v-476.587zM512 448c-70.827 0-128-57.173-128-128s57.173-128 128-128 128 57.173 128 128-57.173 128-128 128zM256 704h384v-170.667h-384z" />
<glyph unicode="&#xe90c;" glyph-name="close_black_24dp" d="M810.667 686.507l-60.16 60.16-238.507-238.507-238.507 238.507-60.16-60.16 238.507-238.507-238.507-238.507 60.16-60.16 238.507 238.507 238.507-238.507 60.16 60.16-238.507 238.507 238.507 238.507z" />
<glyph unicode="&#xe90d;" glyph-name="cancel_black_24dp" d="M512 874.667c-235.947 0-426.667-190.72-426.667-426.667s190.72-426.667 426.667-426.667 426.667 190.72 426.667 426.667-190.72 426.667-426.667 426.667zM512 106.667c-188.16 0-341.333 153.173-341.333 341.333s153.173 341.333 341.333 341.333 341.333-153.173 341.333-341.333-153.173-341.333-341.333-341.333zM665.173 661.333l-153.173-153.173-153.173 153.173-60.16-60.16 153.173-153.173-153.173-153.173 60.16-60.16 153.173 153.173 153.173-153.173 60.16 60.16-153.173 153.173 153.173 153.173z" />
<glyph unicode="&#xe90e;" glyph-name="highlight_off_black_24dp" d="M622.507 618.667l-110.507-110.507-110.507 110.507-60.16-60.16 110.507-110.507-110.507-110.507 60.16-60.16 110.507 110.507 110.507-110.507 60.16 60.16-110.507 110.507 110.507 110.507-60.16 60.16zM512 874.667c-235.947 0-426.667-190.72-426.667-426.667s190.72-426.667 426.667-426.667 426.667 190.72 426.667 426.667-190.72 426.667-426.667 426.667zM512 106.667c-188.16 0-341.333 153.173-341.333 341.333s153.173 341.333 341.333 341.333 341.333-153.173 341.333-341.333-153.173-341.333-341.333-341.333z" />
<glyph unicode="&#xe90f;" glyph-name="do_not_disturb_black_24dp" d="M512 874.667c-235.52 0-426.667-191.147-426.667-426.667s191.147-426.667 426.667-426.667 426.667 191.147 426.667 426.667-191.147 426.667-426.667 426.667zM512 106.667c-188.587 0-341.333 152.747-341.333 341.333 0 78.933 26.88 151.467 72.107 209.067l478.293-478.293c-57.6-45.227-130.133-72.107-209.067-72.107zM781.227 238.933l-478.293 478.293c57.6 45.227 130.133 72.107 209.067 72.107 188.587 0 341.333-152.747 341.333-341.333 0-78.933-26.88-151.467-72.107-209.067z" />
<glyph unicode="&#xe910;" glyph-name="map_black_24dp" d="M874.667 832l-6.827-1.28-227.84-88.32-256 89.6-240.64-81.067c-8.96-2.987-15.36-10.667-15.36-20.48v-645.12c0-11.947 9.387-21.333 21.333-21.333l6.827 1.28 227.84 88.32 256-89.6 240.64 81.067c8.96 2.987 15.36 10.667 15.36 20.48v645.12c0 11.947-9.387 21.333-21.333 21.333zM426.667 726.613l170.667-59.733v-497.493l-170.667 59.733v497.493zM213.333 684.373l128 43.093v-499.2l-128-49.493v505.6zM810.667 211.627l-128-43.093v498.773l128 49.493v-505.173z" />
<glyph unicode="&#xe911;" glyph-name="place_black_24dp" d="M512 448c-46.933 0-85.333 38.4-85.333 85.333s38.4 85.333 85.333 85.333 85.333-38.4 85.333-85.333-38.4-85.333-85.333-85.333zM768 524.8c0 154.88-113.067 264.533-256 264.533s-256-109.653-256-264.533c0-99.84 83.2-232.107 256-389.973 172.8 157.867 256 290.133 256 389.973zM512 874.667c179.2 0 341.333-137.387 341.333-349.867 0-141.653-113.92-309.333-341.333-503.467-227.413 194.133-341.333 361.813-341.333 503.467 0 212.48 162.133 349.867 341.333 349.867z" />
<glyph unicode="&#xe912;" glyph-name="file_download_black_24dp" d="M768 320v-128h-512v128h-85.333v-128c0-46.933 38.4-85.333 85.333-85.333h512c46.933 0 85.333 38.4 85.333 85.333v128h-85.333zM725.333 490.667l-60.16 60.16-110.507-110.080v348.587h-85.333v-348.587l-110.507 110.080-60.16-60.16 213.333-213.333 213.333 213.333z" />
<glyph unicode="&#xe913;" glyph-name="file_upload_black_24dp" d="M768 320v-128h-512v128h-85.333v-128c0-46.933 38.4-85.333 85.333-85.333h512c46.933 0 85.333 38.4 85.333 85.333v128h-85.333zM298.667 576l60.16-60.16 110.507 110.080v-348.587h85.333v348.587l110.507-110.080 60.16 60.16-213.333 213.333-213.333-213.333z" />
<glyph unicode="&#xe914;" glyph-name="share_black_24dp" d="M768 273.92c-32.427 0-61.44-12.8-83.627-32.853l-304.213 177.067c2.133 9.813 3.84 19.627 3.84 29.867s-1.707 20.053-3.84 29.867l300.8 175.36c23.040-21.333 53.333-34.56 87.040-34.56 70.827 0 128 57.173 128 128s-57.173 128-128 128-128-57.173-128-128c0-10.24 1.707-20.053 3.84-29.867l-300.8-175.36c-23.040 21.333-53.333 34.56-87.040 34.56-70.827 0-128-57.173-128-128s57.173-128 128-128c33.707 0 64 13.227 87.040 34.56l303.787-177.493c-2.133-8.96-3.413-18.347-3.413-27.733 0-68.693 55.893-124.587 124.587-124.587s124.587 55.893 124.587 124.587c0 68.693-55.893 124.587-124.587 124.587zM768 789.333c23.467 0 42.667-19.2 42.667-42.667s-19.2-42.667-42.667-42.667-42.667 19.2-42.667 42.667 19.2 42.667 42.667 42.667zM256 405.333c-23.467 0-42.667 19.2-42.667 42.667s19.2 42.667 42.667 42.667 42.667-19.2 42.667-42.667-19.2-42.667-42.667-42.667zM768 105.813c-23.467 0-42.667 19.2-42.667 42.667s19.2 42.667 42.667 42.667 42.667-19.2 42.667-42.667-19.2-42.667-42.667-42.667z" />
<glyph unicode="&#xe915;" glyph-name="ios_share_black_24dp" d="M682.667 746.667l-60.587-60.587-67.84 67.84v-476.587h-84.48v476.587l-67.84-67.84-60.587 60.587 170.667 170.667 170.667-170.667zM853.333 533.333v-469.333c0-46.933-38.4-85.333-85.333-85.333h-512c-47.36 0-85.333 38.4-85.333 85.333v469.333c0 47.36 37.973 85.333 85.333 85.333h128v-85.333h-128v-469.333h512v469.333h-128v85.333h128c46.933 0 85.333-37.973 85.333-85.333z" />
<glyph unicode="&#xe916;" glyph-name="reply_black_24dp" d="M426.667 576v170.667l-298.667-298.667 298.667-298.667v174.933c213.333 0 362.667-68.267 469.333-217.6-42.667 213.333-170.667 426.667-469.333 469.333z" />
<glyph unicode="&#xe917;" glyph-name="send_black_24dp" d="M171.093 702.72l320.427-137.387-320.853 42.667 0.427 94.72zM491.093 330.667l-320.427-137.387v94.72l320.427 42.667zM85.76 832l-0.427-298.667 640-85.333-640-85.333 0.427-298.667 895.573 384-895.573 384z" />
<glyph unicode="&#xe918;" glyph-name="settings_black_24dp" d="M829.013 406.187c1.707 13.653 2.987 27.307 2.987 41.813s-1.28 28.16-2.987 41.813l90.027 70.4c8.107 6.4 10.24 17.92 5.12 27.307l-85.333 147.627c-3.84 6.827-11.093 10.667-18.773 10.667-2.56 0-5.12-0.427-7.253-1.28l-106.24-42.667c-22.187 17.067-46.080 31.147-72.107 41.813l-16.213 113.067c-1.28 10.24-10.24 17.92-20.907 17.92h-170.667c-10.667 0-19.627-7.68-20.907-17.92l-16.213-113.067c-26.027-10.667-49.92-25.173-72.107-41.813l-106.24 42.667c-2.56 0.853-5.12 1.28-7.68 1.28-7.253 0-14.507-3.84-18.347-10.667l-85.333-147.627c-5.547-9.387-2.987-20.907 5.12-27.307l90.027-70.4c-1.707-13.653-2.987-27.733-2.987-41.813s1.28-28.16 2.987-41.813l-90.027-70.4c-8.107-6.4-10.24-17.92-5.12-27.307l85.333-147.627c3.84-6.827 11.093-10.667 18.773-10.667 2.56 0 5.12 0.427 7.253 1.28l106.24 42.667c22.187-17.067 46.080-31.147 72.107-41.813l16.213-113.067c1.28-10.24 10.24-17.92 20.907-17.92h170.667c10.667 0 19.627 7.68 20.907 17.92l16.213 113.067c26.027 10.667 49.92 25.173 72.107 41.813l106.24-42.667c2.56-0.853 5.12-1.28 7.68-1.28 7.253 0 14.507 3.84 18.347 10.667l85.333 147.627c5.12 9.387 2.987 20.907-5.12 27.307l-90.027 70.4zM744.533 479.147c1.707-13.227 2.133-22.187 2.133-31.147s-0.853-18.347-2.133-31.147l-5.973-48.213 37.973-29.867 46.080-35.84-29.867-51.627-54.187 21.76-44.373 17.92-38.4-29.013c-18.347-13.653-35.84-23.893-53.333-31.147l-45.227-18.347-6.827-48.213-8.533-57.6h-59.733l-8.107 57.6-6.827 48.213-45.227 18.347c-18.347 7.68-35.413 17.493-52.48 30.293l-38.827 29.867-45.227-18.347-54.187-21.76-29.867 51.627 46.080 35.84 37.973 29.867-5.973 48.213c-1.28 13.227-2.133 23.040-2.133 31.573s0.853 18.347 2.133 31.147l5.973 48.213-37.973 29.867-46.080 35.84 29.867 51.627 54.187-21.76 44.373-17.92 38.4 29.013c18.347 13.653 35.84 23.893 53.333 31.147l45.227 18.347 6.827 48.213 8.533 57.6h59.307l8.107-57.6 6.827-48.213 45.227-18.347c18.347-7.68 35.413-17.493 52.48-30.293l38.827-29.867 45.227 18.347 54.187 21.76 29.867-51.627-45.653-36.267-37.973-29.867 5.973-48.213zM512 618.667c-94.293 0-170.667-76.373-170.667-170.667s76.373-170.667 170.667-170.667 170.667 76.373 170.667 170.667-76.373 170.667-170.667 170.667zM512 362.667c-46.933 0-85.333 38.4-85.333 85.333s38.4 85.333 85.333 85.333 85.333-38.4 85.333-85.333-38.4-85.333-85.333-85.333z" />
<glyph unicode="&#xe919;" glyph-name="info_black_24dp" d="M469.333 661.333h85.333v-85.333h-85.333zM469.333 490.667h85.333v-256h-85.333zM512 874.667c-235.52 0-426.667-191.147-426.667-426.667s191.147-426.667 426.667-426.667 426.667 191.147 426.667 426.667-191.147 426.667-426.667 426.667zM512 106.667c-188.16 0-341.333 153.173-341.333 341.333s153.173 341.333 341.333 341.333 341.333-153.173 341.333-341.333-153.173-341.333-341.333-341.333z" />
<glyph unicode="&#xe91a;" glyph-name="check_box_black_24dp" d="M810.667 832h-597.333c-46.933 0-85.333-38.4-85.333-85.333v-597.333c0-46.933 38.4-85.333 85.333-85.333h597.333c46.933 0 85.333 38.4 85.333 85.333v597.333c0 46.933-38.4 85.333-85.333 85.333zM810.667 149.333h-597.333v597.333h597.333v-597.333zM767.573 576l-60.16 60.587-281.173-281.173-110.080 109.653-60.587-60.16 170.667-170.24z" />
<glyph unicode="&#xe91b;" glyph-name="check_box_outline_blank_black_24dp" d="M810.667 746.667v-597.333h-597.333v597.333h597.333zM810.667 832h-597.333c-46.933 0-85.333-38.4-85.333-85.333v-597.333c0-46.933 38.4-85.333 85.333-85.333h597.333c46.933 0 85.333 38.4 85.333 85.333v597.333c0 46.933-38.4 85.333-85.333 85.333z" />
<glyph unicode="&#xe91c;" glyph-name="radio_button_unchecked_black_24dp" d="M512 874.667c-235.52 0-426.667-191.147-426.667-426.667s191.147-426.667 426.667-426.667 426.667 191.147 426.667 426.667-191.147 426.667-426.667 426.667zM512 106.667c-188.587 0-341.333 152.747-341.333 341.333s152.747 341.333 341.333 341.333 341.333-152.747 341.333-341.333-152.747-341.333-341.333-341.333z" />
<glyph unicode="&#xe91d;" glyph-name="radio_button_checked_black_24dp" d="M512 874.667c-235.52 0-426.667-191.147-426.667-426.667s191.147-426.667 426.667-426.667 426.667 191.147 426.667 426.667-191.147 426.667-426.667 426.667zM512 106.667c-188.587 0-341.333 152.747-341.333 341.333s152.747 341.333 341.333 341.333 341.333-152.747 341.333-341.333-152.747-341.333-341.333-341.333zM725.333 448c0-117.821-95.513-213.333-213.333-213.333s-213.333 95.513-213.333 213.333c0 117.821 95.513 213.333 213.333 213.333s213.333-95.513 213.333-213.333z" />
<glyph unicode="&#xe91e;" glyph-name="picture_as_pdf_black_24dp" d="M853.333 874.667h-512c-46.933 0-85.333-38.4-85.333-85.333v-512c0-46.933 38.4-85.333 85.333-85.333h512c46.933 0 85.333 38.4 85.333 85.333v512c0 46.933-38.4 85.333-85.333 85.333zM853.333 277.333h-512v512h512v-512zM170.667 704h-85.333v-597.333c0-46.933 38.4-85.333 85.333-85.333h597.333v85.333h-597.333v597.333zM682.667 448v128c0 23.467-19.2 42.667-42.667 42.667h-85.333v-213.333h85.333c23.467 0 42.667 19.2 42.667 42.667zM597.333 576h42.667v-128h-42.667v128zM768 490.667h42.667v42.667h-42.667v42.667h42.667v42.667h-85.333v-213.333h42.667zM426.667 490.667h42.667c23.467 0 42.667 19.2 42.667 42.667v42.667c0 23.467-19.2 42.667-42.667 42.667h-85.333v-213.333h42.667v85.333zM426.667 576h42.667v-42.667h-42.667v42.667z" />
<glyph unicode="&#xe91f;" glyph-name="format_list_numbered_black_24dp" d="M85.333 234.667h85.333v-21.333h-42.667v-42.667h42.667v-21.333h-85.333v-42.667h128v170.667h-128v-42.667zM128 618.667h42.667v170.667h-85.333v-42.667h42.667v-128zM85.333 490.667h76.8l-76.8-89.6v-38.4h128v42.667h-76.8l76.8 89.6v38.4h-128v-42.667zM298.667 746.667v-85.333h597.333v85.333h-597.333zM298.667 149.333h597.333v85.333h-597.333v-85.333zM298.667 405.333h597.333v85.333h-597.333v-85.333z" />
<glyph unicode="&#xe920;" glyph-name="note_add_black_24dp" d="M554.667 490.667h-85.333v-128h-128v-85.333h128v-128h85.333v128h128v85.333h-128zM597.333 874.667h-341.333c-46.933 0-85.333-38.4-85.333-85.333v-682.667c0-46.933 37.973-85.333 84.907-85.333h512.427c46.933 0 85.333 38.4 85.333 85.333v512l-256 256zM768 106.667h-512v682.667h298.667v-213.333h213.333v-469.333z" />
<glyph unicode="&#xe921;" glyph-name="report_problem_black_24dp" d="M512 704.427l321.28-555.093h-642.56l321.28 555.093zM512 874.667l-469.333-810.667h938.667l-469.333 810.667zM554.667 277.333h-85.333v-85.333h85.333v85.333zM554.667 533.333h-85.333v-170.667h85.333v170.667z" />
<glyph unicode="&#xe922;" glyph-name="flag_black_24dp" d="M527.36 704l17.067-85.333h223.573v-256h-143.36l-17.067 85.333h-308.907v256h228.693zM597.333 789.333h-384v-725.333h85.333v298.667h238.933l17.067-85.333h298.667v426.667h-238.933l-17.067 85.333z" />
<glyph unicode="&#xe923;" glyph-name="report_gmailerrorred_black_24dp" d="M671.147 832h-318.293l-224.853-224.853v-318.293l224.853-224.853h318.293l224.853 224.853v318.293l-224.853 224.853zM810.667 324.267l-174.933-174.933h-247.467l-174.933 174.933v247.467l174.933 174.933h247.467l174.933-174.933v-247.467zM554.667 277.333c0-23.564-19.103-42.667-42.667-42.667s-42.667 19.103-42.667 42.667c0 23.564 19.103 42.667 42.667 42.667s42.667-19.103 42.667-42.667zM469.333 661.333h85.333v-298.667h-85.333z" />
<glyph unicode="&#xe924;" glyph-name="show_chart_black_24dp" d="M149.333 171.093l256 256.427 170.667-170.667 362.667 407.893-60.16 60.16-302.507-340.053-170.667 170.667-320-320.427 64-64z" />
<glyph unicode="&#xe925;" glyph-name="trending_up_black_24dp" d="M682.667 704l97.707-97.707-208.213-208.213-170.667 170.667-316.16-316.587 60.16-60.16 256 256 170.667-170.667 268.8 268.373 97.707-97.707v256h-256z" />
<glyph unicode="&#xe926;" glyph-name="insert_chart_outlined_black_24dp" d="M384 234.667h-85.333v298.667h85.333v-298.667zM554.667 234.667h-85.333v426.667h85.333v-426.667zM725.333 234.667h-85.333v170.667h85.333v-170.667zM810.667 149.333h-597.333v597.333h597.333v-597.333zM810.667 832h-597.333c-46.933 0-85.333-38.4-85.333-85.333v-597.333c0-46.933 38.4-85.333 85.333-85.333h597.333c46.933 0 85.333 38.4 85.333 85.333v597.333c0 46.933-38.4 85.333-85.333 85.333z" />
<glyph unicode="&#xe927;" glyph-name="feed_black_24dp" d="M682.667 832h-469.333c-46.933 0-85.333-38.4-85.333-85.333v-597.333c0-46.933 38.4-85.333 85.333-85.333h597.333c46.933 0 85.333 38.4 85.333 85.333v469.333l-213.333 213.333zM810.667 149.333h-597.333v597.333h426.667v-170.667h170.667v-426.667zM298.667 234.667h426.667v85.333h-426.667v-85.333zM512 661.333h-213.333v-85.333h213.333v85.333zM298.667 405.333h426.667v85.333h-426.667v-85.333z" />
<glyph unicode="&#xe928;" glyph-name="view_module_black_24dp" d="M128 746.667v-597.333h768v597.333h-768zM810.667 490.667h-142.080v170.667h142.080v-170.667zM583.253 490.667h-142.080v170.667h142.080v-170.667zM355.413 661.333v-170.667h-142.080v170.667h142.080zM213.333 234.667v170.667h142.080v-170.667h-142.080zM440.747 234.667v170.667h142.080v-170.667h-142.080zM668.587 234.667v170.667h142.080v-170.667h-142.080z" />
<glyph unicode="&#xe929;" glyph-name="schedule_black_24dp" d="M511.573 874.667c-235.52 0-426.24-191.147-426.24-426.667s190.72-426.667 426.24-426.667c235.947 0 427.093 191.147 427.093 426.667s-191.147 426.667-427.093 426.667zM512 106.667c-188.587 0-341.333 152.747-341.333 341.333s152.747 341.333 341.333 341.333 341.333-152.747 341.333-341.333-152.747-341.333-341.333-341.333zM533.333 661.333h-64v-256l224-134.4 32 52.48-192 113.92z" />
<glyph unicode="&#xe92a;" glyph-name="timer_black_24dp" d="M642.987 916.907h-256v-85.333h256v85.333zM472.32 362.24h85.333v256h-85.333v-256zM814.933 644.693l60.587 60.587c-18.347 21.76-38.4 42.24-60.16 60.16l-60.587-60.587c-66.133 52.907-149.333 84.48-239.787 84.48-212.053 0-384-171.947-384-384s171.52-384 384-384 384 171.947 384 384c0 90.027-31.573 173.227-84.053 239.36zM514.987 106.24c-165.12 0-298.667 133.547-298.667 298.667s133.547 298.667 298.667 298.667 298.667-133.547 298.667-298.667-133.547-298.667-298.667-298.667z" />
<glyph unicode="&#xe92b;" glyph-name="alarm_black_24dp" d="M533.333 618.667h-64v-256l202.667-121.6 32 52.48-170.667 101.12zM739.712 882.773l196.565-164.053-54.613-65.493-196.693 163.968zM284.288 882.773l54.699-65.536-196.608-164.011-54.613 65.536zM512 789.333c-212.053 0-384-171.947-384-384s171.947-384 384-384 384 171.947 384 384-171.947 384-384 384zM512 106.667c-164.693 0-298.667 133.973-298.667 298.667s133.973 298.667 298.667 298.667 298.667-133.973 298.667-298.667-133.973-298.667-298.667-298.667z" />
<glyph unicode="&#xe92c;" glyph-name="alarm_on_black_24dp" d="M449.707 340.053l-90.88 90.88-45.227-45.227 135.68-135.68 256 256-45.227 45.227zM739.712 882.773l196.565-164.053-54.613-65.493-196.693 163.968zM284.288 882.773l54.699-65.536-196.608-164.011-54.613 65.536zM512 789.333c-212.053 0-384-171.947-384-384s171.947-384 384-384 384 171.947 384 384-171.947 384-384 384zM512 106.667c-164.693 0-298.667 133.973-298.667 298.667s133.973 298.667 298.667 298.667 298.667-133.973 298.667-298.667-133.973-298.667-298.667-298.667z" />
<glyph unicode="&#xe92d;" glyph-name="people_black_24dp" d="M384 373.333c-99.84 0-298.667-49.92-298.667-149.333v-74.667h597.333v74.667c0 99.413-198.827 149.333-298.667 149.333zM185.173 234.667c35.84 24.747 122.453 53.333 198.827 53.333s162.987-28.587 198.827-53.333h-397.653zM384 448c82.347 0 149.333 66.987 149.333 149.333s-66.987 149.333-149.333 149.333-149.333-66.987-149.333-149.333 66.987-149.333 149.333-149.333zM384 661.333c35.413 0 64-28.587 64-64s-28.587-64-64-64-64 28.587-64 64 28.587 64 64 64zM684.373 370.773c49.493-35.84 83.627-83.627 83.627-146.773v-74.667h170.667v74.667c0 86.187-149.333 135.253-254.293 146.773zM640 448c82.347 0 149.333 66.987 149.333 149.333s-66.987 149.333-149.333 149.333c-23.040 0-44.373-5.547-64-14.933 26.88-37.973 42.667-84.48 42.667-134.4s-15.787-96.427-42.667-134.4c19.627-9.387 40.96-14.933 64-14.933z" />
<glyph unicode="&#xe92e;" glyph-name="supervisor_account_black_24dp" d="M384 448c82.347 0 149.333 66.987 149.333 149.333s-66.987 149.333-149.333 149.333-149.333-66.987-149.333-149.333 66.987-149.333 149.333-149.333zM384 661.333c35.413 0 64-28.587 64-64s-28.587-64-64-64-64 28.587-64 64 28.587 64 64 64zM386.133 234.667h-182.613c42.24 21.333 115.2 42.667 180.48 42.667 4.693 0 9.813-0.427 14.507-0.427 14.507 31.147 39.68 56.747 69.973 77.227-31.147 5.547-60.587 8.533-84.48 8.533-99.84 0-298.667-49.92-298.667-149.333v-64h298.667v64c0 7.253 0.853 14.507 2.133 21.333zM704 341.333c-78.507 0-234.667-43.093-234.667-128v-64h469.333v64c0 84.907-156.16 128-234.667 128zM755.627 418.987c32.427 18.347 55.040 52.907 55.040 93.013 0 58.88-47.787 106.667-106.667 106.667s-106.667-47.787-106.667-106.667c0-40.107 22.613-74.667 55.040-93.013 15.36-8.533 32.853-13.653 51.627-13.653s36.267 5.12 51.627 13.653z" />
<glyph unicode="&#xe92f;" glyph-name="people_alt_black_24dp" d="M711.253 399.787c58.453-39.68 99.413-93.44 99.413-165.12v-128h170.667v128c0 93.013-152.32 148.053-270.080 165.12zM640 448c94.293 0 170.667 76.373 170.667 170.667s-76.373 170.667-170.667 170.667c-20.053 0-38.827-4.267-56.747-10.24 35.413-43.947 56.747-99.84 56.747-160.427s-21.333-116.48-56.747-160.427c17.92-5.973 36.693-10.24 56.747-10.24zM384 448c94.293 0 170.667 76.373 170.667 170.667s-76.373 170.667-170.667 170.667-170.667-76.373-170.667-170.667c0-94.293 76.373-170.667 170.667-170.667zM384 704c46.933 0 85.333-38.4 85.333-85.333s-38.4-85.333-85.333-85.333-85.333 38.4-85.333 85.333c0 46.933 38.4 85.333 85.333 85.333zM384 405.333c-113.92 0-341.333-57.173-341.333-170.667v-128h682.667v128c0 113.493-227.413 170.667-341.333 170.667zM640 192h-512v42.24c8.533 30.72 140.8 85.76 256 85.76s247.467-55.040 256-85.333v-42.667z" />
<glyph unicode="&#xe930;" glyph-name="business_black_24dp" d="M512 661.333v170.667h-426.667v-768h853.333v597.333h-426.667zM256 149.333h-85.333v85.333h85.333v-85.333zM256 320h-85.333v85.333h85.333v-85.333zM256 490.667h-85.333v85.333h85.333v-85.333zM256 661.333h-85.333v85.333h85.333v-85.333zM426.667 149.333h-85.333v85.333h85.333v-85.333zM426.667 320h-85.333v85.333h85.333v-85.333zM426.667 490.667h-85.333v85.333h85.333v-85.333zM426.667 661.333h-85.333v85.333h85.333v-85.333zM853.333 149.333h-341.333v85.333h85.333v85.333h-85.333v85.333h85.333v85.333h-85.333v85.333h341.333v-426.667zM768 490.667h-85.333v-85.333h85.333v85.333zM768 320h-85.333v-85.333h85.333v85.333z" />
<glyph unicode="&#xe931;" glyph-name="apartment_black_24dp" d="M725.333 490.667v341.333h-426.667v-170.667h-170.667v-597.333h341.333v170.667h85.333v-170.667h341.333v426.667h-170.667zM298.667 149.333h-85.333v85.333h85.333v-85.333zM298.667 320h-85.333v85.333h85.333v-85.333zM298.667 490.667h-85.333v85.333h85.333v-85.333zM469.333 320h-85.333v85.333h85.333v-85.333zM469.333 490.667h-85.333v85.333h85.333v-85.333zM469.333 661.333h-85.333v85.333h85.333v-85.333zM640 320h-85.333v85.333h85.333v-85.333zM640 490.667h-85.333v85.333h85.333v-85.333zM640 661.333h-85.333v85.333h85.333v-85.333zM810.667 149.333h-85.333v85.333h85.333v-85.333zM810.667 320h-85.333v85.333h85.333v-85.333z" />
<glyph unicode="&#xe932;" glyph-name="paid_black_24dp" d="M512 874.667c-235.52 0-426.667-191.147-426.667-426.667s191.147-426.667 426.667-426.667 426.667 191.147 426.667 426.667-191.147 426.667-426.667 426.667zM512 106.667c-188.16 0-341.333 153.173-341.333 341.333s153.173 341.333 341.333 341.333 341.333-153.173 341.333-341.333c0-188.16-153.173-341.333-341.333-341.333zM549.973 486.4c-75.947 25.173-112.64 40.96-112.64 81.067 0 43.52 47.36 59.307 77.227 59.307 55.893 0 76.373-42.24 81.067-57.173l67.413 28.587c-6.4 18.773-34.987 81.493-113.493 95.147v53.333h-74.667v-53.76c-110.933-23.893-111.787-121.6-111.787-126.293 0-96.853 96-124.16 142.933-141.227 67.413-23.893 97.28-45.653 97.28-86.613 0-48.213-44.8-68.693-84.48-68.693-77.653 0-99.84 79.787-102.4 89.173l-70.827-28.587c26.88-93.44 97.28-118.613 128.853-126.293v-55.040h74.667v52.907c22.187 3.84 128.853 25.173 128.853 137.387 0.427 59.307-25.6 111.36-128 146.773z" />
<glyph unicode="&#xe933;" glyph-name="attach_money_black_24dp" d="M503.467 494.933c-96.853 25.173-128 51.2-128 91.733 0 46.507 43.093 78.933 115.2 78.933 75.947 0 104.107-36.267 106.667-89.6h94.293c-2.987 73.387-47.787 140.8-136.96 162.56v93.44h-128v-92.16c-82.773-17.92-149.333-71.68-149.333-154.027 0-98.56 81.493-147.627 200.533-176.213 106.667-25.6 128-63.147 128-102.827 0-29.44-20.907-76.373-115.2-76.373-87.893 0-122.453 39.253-127.147 89.6h-93.867c5.12-93.44 75.093-145.92 157.013-163.413v-92.587h128v91.733c83.2 15.787 149.333 64 149.333 151.467 0 121.173-103.68 162.56-200.533 187.733z" />
<glyph unicode="&#xe934;" glyph-name="local_atm_black_24dp" d="M469.333 234.667h85.333v42.667h42.667c23.467 0 42.667 19.2 42.667 42.667v128c0 23.467-19.2 42.667-42.667 42.667h-128v42.667h170.667v85.333h-85.333v42.667h-85.333v-42.667h-42.667c-23.467 0-42.667-19.2-42.667-42.667v-128c0-23.467 19.2-42.667 42.667-42.667h128v-42.667h-170.667v-85.333h85.333v-42.667zM853.333 789.333h-682.667c-47.36 0-84.907-37.973-84.907-85.333l-0.427-512c0-47.36 37.973-85.333 85.333-85.333h682.667c47.36 0 85.333 37.973 85.333 85.333v512c0 47.36-37.973 85.333-85.333 85.333zM853.333 192h-682.667v512h682.667v-512z" />
<glyph unicode="&#xe935;" glyph-name="policy_black_24dp" d="M512 917.333l-384-170.667v-256c0-236.8 163.84-458.24 384-512 220.16 53.76 384 275.2 384 512v256l-384 170.667zM810.667 490.667c0-78.933-21.76-155.733-58.88-222.293l-61.867 61.867c55.040 82.773 45.653 195.413-27.307 268.373-83.2 83.2-218.453 83.2-301.653 0s-83.2-218.453 0-301.653c72.96-72.96 185.6-81.92 268.373-27.307l73.387-73.387c-50.773-60.587-116.48-107.093-190.72-129.707-171.52 53.333-298.667 231.253-298.667 424.107v200.533l298.667 132.693 298.667-132.693v-200.533zM512 320c-70.827 0-128 57.173-128 128s57.173 128 128 128 128-57.173 128-128-57.173-128-128-128z" />
<glyph unicode="&#xe936;" glyph-name="rule_black_24dp" d="M705.707 490.667l-151.040 151.040 60.16 60.16 90.453-90.453 180.907 180.907 60.16-60.16-240.64-241.493zM469.333 661.333h-384v-85.333h384v85.333zM896 387.84l-60.16 60.16-110.507-110.507-110.507 110.507-60.16-60.16 110.507-110.507-110.507-110.507 60.16-60.16 110.507 110.507 110.507-110.507 60.16 60.16-110.507 110.507 110.507 110.507zM469.333 320h-384v-85.333h384v85.333z" />
<glyph unicode="&#xe937;" glyph-name="gavel_black_24dp" d="M42.667 64h512v-85.333h-512v85.333zM223.573 615.68l120.747 120.747 603.307-603.307-120.747-120.747-603.307 603.307zM525.653 917.333l241.493-241.493-120.747-120.747-241.493 241.493 120.747 120.747zM163.413 555.52l241.493-241.493-120.747-120.747-241.493 241.493 120.747 120.747z" />
<glyph unicode="&#xe938;" glyph-name="rule_folder_black_24dp" d="M334.080 277.333l-120.747 120.747 60.16 60.16 60.16-60.16 151.040 151.040 60.16-60.16-210.773-211.627zM742.827 405.333l67.84-67.84-60.16-60.16-67.84 67.84-67.84-67.84-60.16 60.16 67.84 67.84-67.84 67.84 60.16 60.16 67.84-67.84 67.84 67.84 60.16-60.16-67.84-67.84zM853.333 704h-341.333l-85.333 85.333h-256c-46.933 0-84.907-38.4-84.907-85.333l-0.427-512c0-46.933 38.4-85.333 85.333-85.333h682.667c46.933 0 85.333 38.4 85.333 85.333v426.667c0 46.933-38.4 85.333-85.333 85.333zM853.333 192h-682.667v512h220.587l85.333-85.333h376.747v-426.667z" />
<glyph unicode="&#xe939;" glyph-name="receipt_black_24dp" d="M832 810.667l-64 64-64-64-64 64-64-64-64 64-64-64-64 64-64-64-64 64-64-64-64 64v-853.333l64 64 64-64 64 64 64-64 64 64 64-64 64 64 64-64 64 64 64-64 64 64 64-64v853.333l-64-64zM810.667 145.493h-597.333v605.013h597.333v-605.013zM256 320h512v-85.333h-512zM256 490.667h512v-85.333h-512zM256 661.333h512v-85.333h-512z" />
<glyph unicode="&#xe93a;" glyph-name="receipt_long_black_24dp" d="M832 810.667l-64 64-64-64-64 64-64-64-64 64-64-64-64 64-64-64-64 64v-597.333h-128v-128c0-70.827 57.173-128 128-128h512c70.827 0 128 57.173 128 128v725.333l-64-64zM640 106.667h-384c-23.467 0-42.667 19.2-42.667 42.667v42.667h426.667v-85.333zM810.667 149.333c0-23.467-19.2-42.667-42.667-42.667s-42.667 19.2-42.667 42.667v128h-384v469.333h469.333v-597.333zM384 661.333h256v-85.333h-256v85.333zM682.667 661.333h85.333v-85.333h-85.333v85.333zM384 533.333h256v-85.333h-256v85.333zM682.667 533.333h85.333v-85.333h-85.333v85.333z" />
<glyph unicode="&#xe93b;" glyph-name="business_center_black_24dp" d="M853.333 661.333h-170.667v85.333l-85.333 85.333h-170.667l-85.333-85.333v-85.333h-170.667c-46.933 0-85.333-38.4-85.333-85.333v-213.333c0-32 17.067-58.88 42.667-73.813v-139.52c0-47.36 37.973-85.333 85.333-85.333h597.333c47.36 0 85.333 37.973 85.333 85.333v139.947c25.173 14.933 42.667 42.24 42.667 73.387v213.333c0 46.933-38.4 85.333-85.333 85.333zM426.667 746.667h170.667v-85.333h-170.667v85.333zM170.667 576h682.667v-213.333h-213.333v128h-256v-128h-213.333v213.333zM554.667 320h-85.333v85.333h85.333v-85.333zM810.667 149.333h-597.333v128h170.667v-42.667h256v42.667h170.667v-128z" />
<glyph unicode="&#xe93c;" glyph-name="work_outline_black_24dp" d="M597.333 704v85.333h-170.667v-85.333h170.667zM170.667 618.667v-469.333h682.667v469.333h-682.667zM853.333 704c47.36 0 85.333-37.973 85.333-85.333v-469.333c0-47.36-37.973-85.333-85.333-85.333h-682.667c-47.36 0-85.333 37.973-85.333 85.333l0.427 469.333c0 47.36 37.547 85.333 84.907 85.333h170.667v85.333c0 47.36 37.973 85.333 85.333 85.333h170.667c47.36 0 85.333-37.973 85.333-85.333v-85.333h170.667z" />
<glyph unicode="&#xe93d;" glyph-name="badge_black_24dp" d="M597.333 448h170.667v-64h-170.667v64zM597.333 320h170.667v-64h-170.667v64zM853.333 661.333h-213.333v128c0 46.933-38.4 85.333-85.333 85.333h-85.333c-46.933 0-85.333-38.4-85.333-85.333v-128h-213.333c-46.933 0-85.333-38.4-85.333-85.333v-469.333c0-46.933 38.4-85.333 85.333-85.333h682.667c46.933 0 85.333 38.4 85.333 85.333v469.333c0 46.933-38.4 85.333-85.333 85.333zM469.333 661.333v128h85.333v-213.333h-85.333v85.333zM853.333 106.667h-682.667v469.333h213.333c0-46.933 38.4-85.333 85.333-85.333h85.333c46.933 0 85.333 38.4 85.333 85.333h213.333v-469.333zM448 384c0-35.346-28.654-64-64-64s-64 28.654-64 64c0 35.346 28.654 64 64 64s64-28.654 64-64zM472.747 269.653c-27.307 11.947-57.173 18.347-88.747 18.347s-61.44-6.4-88.747-18.347c-23.893-10.24-39.253-33.28-39.253-59.307v-18.347h256v18.347c0 26.027-15.36 49.067-39.253 59.307z" />
<glyph unicode="&#xe93e;" glyph-name="person_pin_black_24dp" d="M810.667 874.667h-597.333c-47.36 0-85.333-38.4-85.333-85.333v-597.333c0-46.933 37.973-85.333 85.333-85.333h170.667l128-128 128 128h170.667c46.933 0 85.333 38.4 85.333 85.333v597.333c0 46.933-38.4 85.333-85.333 85.333zM810.667 192h-206.080l-92.587-92.587-92.587 92.587h-206.080v597.333h597.333v-597.333zM512 490.667c70.4 0 128 57.6 128 128s-57.6 128-128 128-128-57.6-128-128 57.6-128 128-128zM512 661.333c23.467 0 42.667-19.2 42.667-42.667s-19.2-42.667-42.667-42.667-42.667 19.2-42.667 42.667 19.2 42.667 42.667 42.667zM768 295.253c0 106.667-169.387 152.747-256 152.747s-256-46.080-256-152.747v-60.587h512v60.587zM361.813 320c31.573 21.76 95.147 42.667 150.187 42.667s118.613-20.907 150.187-42.667h-300.373z" />
<glyph unicode="&#xe93f;" glyph-name="person_black_24dp" d="M512 704c46.933 0 85.333-38.4 85.333-85.333s-38.4-85.333-85.333-85.333-85.333 38.4-85.333 85.333 38.4 85.333 85.333 85.333zM512 277.333c115.2 0 247.467-55.040 256-85.333h-512c9.813 30.72 141.227 85.333 256 85.333zM512 789.333c-94.293 0-170.667-76.373-170.667-170.667s76.373-170.667 170.667-170.667 170.667 76.373 170.667 170.667-76.373 170.667-170.667 170.667zM512 362.667c-113.92 0-341.333-57.173-341.333-170.667v-85.333h682.667v85.333c0 113.493-227.413 170.667-341.333 170.667z" />
<glyph unicode="&#xe940;" glyph-name="face_black_24dp" d="M437.333 405.333c0-29.44-23.893-53.333-53.333-53.333s-53.333 23.893-53.333 53.333 23.893 53.333 53.333 53.333 53.333-23.893 53.333-53.333zM640 458.667c-29.44 0-53.333-23.893-53.333-53.333s23.893-53.333 53.333-53.333 53.333 23.893 53.333 53.333-23.893 53.333-53.333 53.333zM938.667 448c0-235.52-191.147-426.667-426.667-426.667s-426.667 191.147-426.667 426.667 191.147 426.667 426.667 426.667 426.667-191.147 426.667-426.667zM454.827 784.213c59.733-98.987 168.107-165.547 291.84-165.547 19.627 0 38.827 2.133 57.173 5.12-59.733 98.987-168.107 165.547-291.84 165.547-19.627 0-38.827-2.133-57.173-5.12zM188.587 555.947c72.96 41.387 129.28 108.8 156.16 189.44-72.96-41.387-129.28-108.8-156.16-189.44zM853.333 448c0 33.28-5.12 65.28-14.080 95.573-29.867-6.4-60.587-10.24-92.587-10.24-133.547 0-252.587 61.44-331.093 157.44-44.8-109.227-133.973-194.987-244.907-236.8 0.427-1.707 0-3.84 0-5.973 0-188.16 153.173-341.333 341.333-341.333s341.333 153.173 341.333 341.333z" />
<glyph unicode="&#xe941;" glyph-name="person_outline_black_24dp" d="M512 708.267c49.493 0 89.6-40.107 89.6-89.6s-40.107-89.6-89.6-89.6-89.6 40.107-89.6 89.6 40.107 89.6 89.6 89.6zM512 324.267c126.72 0 260.267-62.293 260.267-89.6v-46.933h-520.533v46.933c0 27.307 133.547 89.6 260.267 89.6zM512 789.333c-94.293 0-170.667-76.373-170.667-170.667s76.373-170.667 170.667-170.667 170.667 76.373 170.667 170.667-76.373 170.667-170.667 170.667zM512 405.333c-113.92 0-341.333-57.173-341.333-170.667v-128h682.667v128c0 113.493-227.413 170.667-341.333 170.667z" />
<glyph unicode="&#xe942;" glyph-name="help_outline_black_24dp" d="M469.333 192h85.333v85.333h-85.333v-85.333zM512 874.667c-235.52 0-426.667-191.147-426.667-426.667s191.147-426.667 426.667-426.667 426.667 191.147 426.667 426.667-191.147 426.667-426.667 426.667zM512 106.667c-188.16 0-341.333 153.173-341.333 341.333s153.173 341.333 341.333 341.333 341.333-153.173 341.333-341.333-153.173-341.333-341.333-341.333zM512 704c-94.293 0-170.667-76.373-170.667-170.667h85.333c0 46.933 38.4 85.333 85.333 85.333s85.333-38.4 85.333-85.333c0-85.333-128-74.667-128-213.333h85.333c0 96 128 106.667 128 213.333 0 94.293-76.373 170.667-170.667 170.667z" />
<glyph unicode="&#xe943;" glyph-name="help_center_black_24dp" d="M565.333 245.76c0-29.44-22.613-53.76-53.333-53.76-29.867 0-53.76 23.893-53.76 53.76 0 30.293 23.893 53.333 53.76 53.333 30.293 0 53.333-23.467 53.333-53.333zM511.573 704c-75.52 0-127.147-49.067-146.347-106.24l69.973-29.44c9.387 28.587 31.573 63.147 76.8 63.147 69.12 0 82.773-64.853 58.453-99.413-23.040-32.853-62.72-55.040-83.627-92.16-16.64-29.44-13.227-63.573-13.227-84.48h77.653c0 39.68 2.987 47.787 9.387 60.16 16.64 30.72 47.36 45.227 79.787 92.587 29.013 42.667 17.92 100.693-0.853 131.413-21.76 35.84-64.853 64.427-128 64.427zM810.667 746.667h-597.333v-597.333h597.333v597.333zM810.667 832c46.933 0 85.333-38.4 85.333-85.333v-597.333c0-46.933-38.4-85.333-85.333-85.333h-597.333c-46.933 0-85.333 38.4-85.333 85.333v597.333c0 46.933 38.4 85.333 85.333 85.333h597.333z" />
<glyph unicode="&#xe944;" glyph-name="event_black_24dp" d="M810.667 789.333h-42.667v85.333h-85.333v-85.333h-341.333v85.333h-85.333v-85.333h-42.667c-47.36 0-84.907-38.4-84.907-85.333l-0.427-597.333c0-46.933 37.973-85.333 85.333-85.333h597.333c46.933 0 85.333 38.4 85.333 85.333v597.333c0 46.933-38.4 85.333-85.333 85.333zM810.667 106.667h-597.333v426.667h597.333v-426.667zM810.667 618.667h-597.333v85.333h597.333v-85.333zM512 405.333h213.333v-213.333h-213.333z" />
<glyph unicode="&#xe945;" glyph-name="calendar_today_black_24dp" d="M853.333 832h-42.667v85.333h-85.333v-85.333h-426.667v85.333h-85.333v-85.333h-42.667c-46.933 0-85.333-38.4-85.333-85.333v-682.667c0-46.933 38.4-85.333 85.333-85.333h682.667c46.933 0 85.333 38.4 85.333 85.333v682.667c0 46.933-38.4 85.333-85.333 85.333zM853.333 64h-682.667v469.333h682.667v-469.333zM853.333 618.667h-682.667v128h682.667v-128z" />
<glyph unicode="&#xe946;" glyph-name="date_range_black_24dp" d="M298.667 490.667h85.333v-85.333h-85.333v85.333zM896 704v-597.333c0-46.933-38.4-85.333-85.333-85.333h-597.333c-47.36 0-85.333 38.4-85.333 85.333l0.427 597.333c0 46.933 37.547 85.333 84.907 85.333h42.667v85.333h85.333v-85.333h341.333v85.333h85.333v-85.333h42.667c46.933 0 85.333-38.4 85.333-85.333zM213.333 618.667h597.333v85.333h-597.333v-85.333zM810.667 106.667v426.667h-597.333v-426.667h597.333zM640 405.333h85.333v85.333h-85.333v-85.333zM469.333 405.333h85.333v85.333h-85.333v-85.333z" />
<glyph unicode="&#xe947;" glyph-name="auto_fix_high_black_24dp" d="M853.333 661.333l40.107 87.893 87.893 40.107-87.893 40.107-40.107 87.893-40.107-87.893-87.893-40.107 87.893-40.107zM362.667 661.333l40.107 87.893 87.893 40.107-87.893 40.107-40.107 87.893-40.107-87.893-87.893-40.107 87.893-40.107zM853.333 426.667l-40.107-87.893-87.893-40.107 87.893-40.107 40.107-87.893 40.107 87.893 87.893 40.107-87.893 40.107zM755.627 570.88l-120.747 120.747c-8.533 8.107-19.2 12.373-30.293 12.373s-21.76-4.267-30.293-12.373l-476.587-476.587c-16.64-16.64-16.64-43.52 0-60.16l120.747-120.747c8.533-8.533 19.2-12.8 30.293-12.8s21.76 4.267 30.293 12.373l476.587 476.587c16.64 16.64 16.64 43.947 0 60.587zM604.587 600.747l60.16-60.16-49.92-49.92-60.16 60.16 49.92 49.92zM248.747 124.16l-60.16 60.16 305.92 306.347 60.16-60.16-305.92-306.347z" />
<glyph unicode="&#xe948;" glyph-name="delete_black_24dp" d="M682.667 576v-426.667h-341.333v426.667h341.333zM618.667 832h-213.333l-42.667-42.667h-149.333v-85.333h597.333v85.333h-149.333l-42.667 42.667zM768 661.333h-512v-512c0-46.933 38.4-85.333 85.333-85.333h341.333c46.933 0 85.333 38.4 85.333 85.333v512z" />
<glyph unicode="&#xe949;" glyph-name="delete_forever_black_24dp" d="M602.453 513.28l-90.453-90.453-90.88 90.453-60.16-60.16 90.88-90.453-90.453-90.453 60.16-60.16 90.453 90.453 90.453-90.453 60.16 60.16-90.453 90.453 90.453 90.453zM661.333 789.333l-42.667 42.667h-213.333l-42.667-42.667h-149.333v-85.333h597.333v85.333zM256 149.333c0-46.933 38.4-85.333 85.333-85.333h341.333c46.933 0 85.333 38.4 85.333 85.333v512h-512v-512zM341.333 576h341.333v-426.667h-341.333v426.667z" />
<glyph unicode="&#xe94a;" glyph-name="navigate_next_black_24dp" d="M427.52 704l-60.16-60.16 195.413-195.84-195.413-195.84 60.16-60.16 256 256-256 256z" />
<glyph unicode="&#xe94b;" glyph-name="navigate_before_black_24dp" d="M666.027 643.84l-60.16 60.16-256-256 256-256 60.16 60.16-195.413 195.84 195.413 195.84z" />
<glyph unicode="&#xe94c;" glyph-name="expand_more_black_24dp" d="M707.84 593.493l-195.84-195.413-195.84 195.413-60.16-60.16 256-256 256 256-60.16 60.16z" />
<glyph unicode="&#xe94d;" glyph-name="expand_less_black_24dp" d="M512 618.667l-256-256 60.16-60.16 195.84 195.413 195.84-195.413 60.16 60.16-256 256z" />
<glyph unicode="&#xe94e;" glyph-name="arrow_back_black_24dp" d="M853.333 490.667h-519.253l238.507 238.507-60.587 60.16-341.333-341.333 341.333-341.333 60.16 60.16-238.080 238.507h519.253v85.333z" />
<glyph unicode="&#xe94f;" glyph-name="arrow_forward_black_24dp" d="M512 789.333l-60.16-60.16 238.080-238.507h-519.253v-85.333h519.253l-238.080-238.507 60.16-60.16 341.333 341.333-341.333 341.333z" />
<glyph unicode="&#xe950;" glyph-name="speed_black_24dp" d="M869.547 594.347l-52.48-78.933c22.827-44.56 36.205-97.211 36.205-152.987 0-62.74-16.927-121.527-46.464-172.042l0.873 1.615h-591.36c-28.678 48.909-45.613 107.709-45.613 170.464 0 188.513 152.82 341.333 341.333 341.333 55.666 0 108.219-13.325 154.644-36.96l-1.938 0.895 78.933 52.48c-65.117 42.329-144.775 67.5-230.312 67.5-235.641 0-426.667-191.025-426.667-426.667 0-77.89 20.871-150.905 57.326-213.758l-1.095 2.045c14.943-25.542 42.166-42.472 73.359-42.667h590.961c0.101 0 0.22-0.001 0.339-0.001 31.419 0 58.872 16.98 73.683 42.265l0.218 0.403c35.93 61.191 57.15 134.774 57.15 213.313 0 86.296-25.62 166.609-69.668 233.747l0.997-1.619zM451.84 302.507c15.446-15.462 36.792-25.027 60.373-25.027s44.928 9.565 60.373 25.026l0.001 0.001 241.493 362.24-362.24-241.493c-15.462-15.446-25.027-36.792-25.027-60.373s9.565-44.928 25.026-60.373l0.001-0.001z" />
<glyph unicode="&#xe951;" glyph-name="label_black_24dp" d="M752.213 710.827c-15.36 21.76-40.96 35.84-69.547 35.84l-469.333-0.427c-46.933 0-85.333-37.973-85.333-84.907v-426.667c0-46.933 38.4-84.907 85.333-84.907l469.333-0.427c28.587 0 54.187 14.080 69.547 35.84l186.453 262.827-186.453 262.827zM682.667 234.667h-469.333v426.667h469.333l151.467-213.333-151.467-213.333z" />
<glyph unicode="&#xe952;" glyph-name="more_vert_black_24dp" d="M512 618.667c46.933 0 85.333 38.4 85.333 85.333s-38.4 85.333-85.333 85.333-85.333-38.4-85.333-85.333 38.4-85.333 85.333-85.333zM512 533.333c-46.933 0-85.333-38.4-85.333-85.333s38.4-85.333 85.333-85.333 85.333 38.4 85.333 85.333-38.4 85.333-85.333 85.333zM512 277.333c-46.933 0-85.333-38.4-85.333-85.333s38.4-85.333 85.333-85.333 85.333 38.4 85.333 85.333-38.4 85.333-85.333 85.333z" />
<glyph unicode="&#xe953;" glyph-name="more_horiz_black_24dp" d="M256 533.333c-46.933 0-85.333-38.4-85.333-85.333s38.4-85.333 85.333-85.333 85.333 38.4 85.333 85.333-38.4 85.333-85.333 85.333zM768 533.333c-46.933 0-85.333-38.4-85.333-85.333s38.4-85.333 85.333-85.333 85.333 38.4 85.333 85.333-38.4 85.333-85.333 85.333zM512 533.333c-46.933 0-85.333-38.4-85.333-85.333s38.4-85.333 85.333-85.333 85.333 38.4 85.333 85.333-38.4 85.333-85.333 85.333z" />
<glyph unicode="&#xe954;" glyph-name="sms_black_24dp" d="M853.333 874.667h-682.667c-46.933 0-85.333-38.4-85.333-85.333v-768l170.667 170.667h597.333c46.933 0 85.333 38.4 85.333 85.333v512c0 46.933-38.4 85.333-85.333 85.333zM853.333 277.333h-632.747l-49.92-49.92v561.92h682.667v-512zM298.667 576h85.333v-85.333h-85.333zM640 576h85.333v-85.333h-85.333zM469.333 576h85.333v-85.333h-85.333z" />
<glyph unicode="&#xe955;" glyph-name="more_black_24dp" d="M938.667 832h-640c-29.44 0-52.48-14.933-67.84-37.547l-230.827-346.453 230.827-346.027c15.36-22.613 41.387-37.973 70.827-37.973h637.013c46.933 0 85.333 38.4 85.333 85.333v597.333c0 46.933-38.4 85.333-85.333 85.333zM938.667 149.333h-637.013l-199.253 298.667 198.827 298.667h637.44v-597.333zM448 448c0-35.346-28.654-64-64-64s-64 28.654-64 64c0 35.346 28.654 64 64 64s64-28.654 64-64zM661.333 448c0-35.346-28.654-64-64-64s-64 28.654-64 64c0 35.346 28.654 64 64 64s64-28.654 64-64zM874.667 448c0-35.346-28.654-64-64-64s-64 28.654-64 64c0 35.346 28.654 64 64 64s64-28.654 64-64z" />
<glyph unicode="&#xe956;" glyph-name="dialpad_black_24dp" d="M512 149.333c-46.933 0-85.333-38.4-85.333-85.333s38.4-85.333 85.333-85.333 85.333 38.4 85.333 85.333-38.4 85.333-85.333 85.333zM256 917.333c-46.933 0-85.333-38.4-85.333-85.333s38.4-85.333 85.333-85.333 85.333 38.4 85.333 85.333-38.4 85.333-85.333 85.333zM256 661.333c-46.933 0-85.333-38.4-85.333-85.333s38.4-85.333 85.333-85.333 85.333 38.4 85.333 85.333-38.4 85.333-85.333 85.333zM256 405.333c-46.933 0-85.333-38.4-85.333-85.333s38.4-85.333 85.333-85.333 85.333 38.4 85.333 85.333-38.4 85.333-85.333 85.333zM768 746.667c46.933 0 85.333 38.4 85.333 85.333s-38.4 85.333-85.333 85.333-85.333-38.4-85.333-85.333 38.4-85.333 85.333-85.333zM512 405.333c-46.933 0-85.333-38.4-85.333-85.333s38.4-85.333 85.333-85.333 85.333 38.4 85.333 85.333-38.4 85.333-85.333 85.333zM768 405.333c-46.933 0-85.333-38.4-85.333-85.333s38.4-85.333 85.333-85.333 85.333 38.4 85.333 85.333-38.4 85.333-85.333 85.333zM768 661.333c-46.933 0-85.333-38.4-85.333-85.333s38.4-85.333 85.333-85.333 85.333 38.4 85.333 85.333-38.4 85.333-85.333 85.333zM512 661.333c-46.933 0-85.333-38.4-85.333-85.333s38.4-85.333 85.333-85.333 85.333 38.4 85.333 85.333-38.4 85.333-85.333 85.333zM512 917.333c-46.933 0-85.333-38.4-85.333-85.333s38.4-85.333 85.333-85.333 85.333 38.4 85.333 85.333-38.4 85.333-85.333 85.333z" />
<glyph unicode="&#xe957;" glyph-name="drag_indicator_black_24dp" d="M469.333 192c0-46.933-38.4-85.333-85.333-85.333s-85.333 38.4-85.333 85.333 38.4 85.333 85.333 85.333 85.333-38.4 85.333-85.333zM384 533.333c-46.933 0-85.333-38.4-85.333-85.333s38.4-85.333 85.333-85.333 85.333 38.4 85.333 85.333-38.4 85.333-85.333 85.333zM384 789.333c-46.933 0-85.333-38.4-85.333-85.333s38.4-85.333 85.333-85.333 85.333 38.4 85.333 85.333-38.4 85.333-85.333 85.333zM640 618.667c46.933 0 85.333 38.4 85.333 85.333s-38.4 85.333-85.333 85.333-85.333-38.4-85.333-85.333 38.4-85.333 85.333-85.333zM640 533.333c-46.933 0-85.333-38.4-85.333-85.333s38.4-85.333 85.333-85.333 85.333 38.4 85.333 85.333-38.4 85.333-85.333 85.333zM640 277.333c-46.933 0-85.333-38.4-85.333-85.333s38.4-85.333 85.333-85.333 85.333 38.4 85.333 85.333-38.4 85.333-85.333 85.333z" />
<glyph unicode="&#xe958;" glyph-name="pending_black_24dp" d="M512 874.667c-235.52 0-426.667-191.147-426.667-426.667s191.147-426.667 426.667-426.667 426.667 191.147 426.667 426.667c0 235.52-191.147 426.667-426.667 426.667zM512 106.667c-188.587 0-341.333 152.747-341.333 341.333s152.747 341.333 341.333 341.333 341.333-152.747 341.333-341.333c0-188.587-152.747-341.333-341.333-341.333zM362.667 448c0-35.346-28.654-64-64-64s-64 28.654-64 64c0 35.346 28.654 64 64 64s64-28.654 64-64zM576 448c0-35.346-28.654-64-64-64s-64 28.654-64 64c0 35.346 28.654 64 64 64s64-28.654 64-64zM789.333 448c0-35.346-28.654-64-64-64s-64 28.654-64 64c0 35.346 28.654 64 64 64s64-28.654 64-64z" />
<glyph unicode="&#xe959;" glyph-name="my_location_black_24dp" d="M512 618.667c-94.293 0-170.667-76.373-170.667-170.667s76.373-170.667 170.667-170.667 170.667 76.373 170.667 170.667-76.373 170.667-170.667 170.667zM893.44 490.667c-19.627 177.92-160.853 319.147-338.773 338.773v87.893h-85.333v-87.893c-177.92-19.627-319.147-160.853-338.773-338.773h-87.893v-85.333h87.893c19.627-177.92 160.853-319.147 338.773-338.773v-87.893h85.333v87.893c177.92 19.627 319.147 160.853 338.773 338.773h87.893v85.333h-87.893zM512 149.333c-165.12 0-298.667 133.547-298.667 298.667s133.547 298.667 298.667 298.667 298.667-133.547 298.667-298.667-133.547-298.667-298.667-298.667z" />
<glyph unicode="&#xe95a;" glyph-name="near_me_black_24dp" d="M736.853 672.853l-180.907-432.213-69.973 181.333-34.987 13.653-146.347 56.747 432.213 180.48zM896 832l-768-321.28v-41.813l291.84-113.067 112.64-291.84h41.813l321.707 768z" />
<glyph unicode="&#xe95b;" glyph-name="edit_note_black_24dp" d="M128 533.333h469.333v-85.333h-469.333v85.333zM128 618.667h469.333v85.333h-469.333v-85.333zM128 277.333h298.667v85.333h-298.667v-85.333zM768.427 410.88l30.293 30.293c16.64 16.64 43.52 16.64 60.16 0l30.293-30.293c16.64-16.64 16.64-43.52 0-60.16l-30.293-30.293-90.453 90.453zM738.133 380.587l-226.133-226.133v-90.453h90.453l226.133 226.133-90.453 90.453z" />
<glyph unicode="&#xe95c;" glyph-name="north_east_black_24dp" d="M384 746.667v-85.333h281.173l-494.507-494.507 60.16-60.16 494.507 494.507v-281.173h85.333v426.667h-426.667z" />
<glyph unicode="&#xe95d;" glyph-name="double_arrow_black_24dp" d="M661.333 746.667h-192l213.333-298.667-213.333-298.667h192l213.333 298.667zM362.667 746.667h-192l213.333-298.667-213.333-298.667h192l213.333 298.667z" />
<glyph unicode="&#xe95e;" glyph-name="more_black_24dp1" d="M938.667 832h-640c-29.44 0-52.48-14.933-67.84-37.547l-230.827-346.453 230.827-346.027c15.36-22.613 41.387-37.973 70.827-37.973h637.013c46.933 0 85.333 38.4 85.333 85.333v597.333c0 46.933-38.4 85.333-85.333 85.333zM938.667 149.333h-637.013l-199.253 298.667 198.827 298.667h637.44v-597.333zM448 448c0-35.346-28.654-64-64-64s-64 28.654-64 64c0 35.346 28.654 64 64 64s64-28.654 64-64zM661.333 448c0-35.346-28.654-64-64-64s-64 28.654-64 64c0 35.346 28.654 64 64 64s64-28.654 64-64zM874.667 448c0-35.346-28.654-64-64-64s-64 28.654-64 64c0 35.346 28.654 64 64 64s64-28.654 64-64z" />
<glyph unicode="&#xe95f;" glyph-name="notifications_black_24dp" d="M512 21.333c46.933 0 85.333 38.4 85.333 85.333h-170.667c0-46.933 38.4-85.333 85.333-85.333zM768 277.333v213.333c0 130.987-69.547 240.64-192 269.653v29.013c0 35.413-28.587 64-64 64s-64-28.587-64-64v-29.013c-122.027-29.013-192-138.24-192-269.653v-213.333l-85.333-85.333v-42.667h682.667v42.667l-85.333 85.333zM682.667 234.667h-341.333v256c0 105.813 64.427 192 170.667 192s170.667-86.187 170.667-192v-256z" />
<glyph unicode="&#xe960;" glyph-name="notification_important_black_24dp" d="M427.093 63.573c0-46.933 37.973-84.907 84.907-84.907s84.907 37.973 84.907 84.907h-169.813zM512 704c117.76 0 213.333-95.573 213.333-213.333v-298.667h-426.667v298.667c0 117.76 95.573 213.333 213.333 213.333zM512 896c-35.413 0-64-28.587-64-64v-49.92c-133.973-29.013-234.667-148.48-234.667-291.413v-256l-85.333-85.333v-42.667h768v42.667l-85.333 85.333v256c0 142.933-100.693 262.4-234.667 291.413v49.92c0 35.413-28.587 64-64 64zM469.333 618.667h85.333v-170.667h-85.333zM469.333 362.667h85.333v-85.333h-85.333z" />
<glyph unicode="&#xe961;" glyph-name="edit_notifications_black_24dp" d="M750.080 693.333l75.52-75.52-212.48-212.48h-75.52v75.52l212.48 212.48zM889.6 712.107l-45.227 45.227c-8.533 8.533-21.76 8.533-30.293 0l-36.267-36.267 75.52-75.52 36.267 36.267c8.533 8.533 8.533 22.187 0 30.293zM768 439.467v-204.8h85.333v-85.333h-682.667v85.333h85.333v298.667c0 119.040 81.493 219.307 192 247.467v29.867c0 35.413 28.587 64 64 64s64-28.587 64-64v-29.867c34.987-8.96 66.987-25.173 94.293-46.507l-61.013-61.013c-27.307 19.627-61.013 30.72-97.28 30.72-94.293 0-170.667-76.373-170.667-170.667v-298.667h341.333v119.467l85.333 85.333zM426.667 106.667h170.667c0-46.933-38.4-85.333-85.333-85.333s-85.333 38.4-85.333 85.333z" />
<glyph unicode="&#xe962;" glyph-name="print_black_24dp" d="M810.667 618.667h-42.667v213.333h-512v-213.333h-42.667c-70.827 0-128-57.173-128-128v-256h170.667v-170.667h512v170.667h170.667v256c0 70.827-57.173 128-128 128zM341.333 746.667h341.333v-128h-341.333v128zM682.667 234.667v-85.333h-341.333v170.667h341.333v-85.333zM768 320v85.333h-512v-85.333h-85.333v170.667c0 23.467 19.2 42.667 42.667 42.667h597.333c23.467 0 42.667-19.2 42.667-42.667v-170.667h-85.333zM810.667 469.333c0-23.564-19.103-42.667-42.667-42.667s-42.667 19.103-42.667 42.667c0 23.564 19.103 42.667 42.667 42.667s42.667-19.103 42.667-42.667z" />
<glyph unicode="&#xe963;" glyph-name="person_add_alt_black_24dp" d="M853.333 576v128h-85.333v-128h-128v-85.333h128v-128h85.333v128h128v85.333h-128zM384 448c94.293 0 170.667 76.373 170.667 170.667s-76.373 170.667-170.667 170.667-170.667-76.373-170.667-170.667c0-94.293 76.373-170.667 170.667-170.667zM384 704c46.933 0 85.333-38.4 85.333-85.333s-38.4-85.333-85.333-85.333-85.333 38.4-85.333 85.333c0 46.933 38.4 85.333 85.333 85.333zM656.64 338.773c-71.68 36.693-164.693 66.56-272.64 66.56s-200.96-29.867-272.64-66.56c-42.667-21.76-68.693-65.707-68.693-113.493v-118.613h682.667v118.613c0 47.787-26.027 91.733-68.693 113.493zM640 192h-512v33.28c0 16.213 8.533 30.72 22.187 37.547 50.773 26.027 132.693 57.173 233.813 57.173s183.040-31.147 233.813-57.173c13.653-6.827 22.187-21.333 22.187-37.547v-33.28z" />
<glyph unicode="&#xe964;" glyph-name="post_add_black_24dp1" d="M725.333 139.947h-512v521.387h298.667v85.333h-298.667c-46.933 0-85.333-38.4-85.333-85.333v-512c0-46.933 38.4-85.333 85.333-85.333h512c46.933 0 85.333 38.4 85.333 85.333v298.667h-85.333v-308.053zM810.667 874.667h-85.333v-128h-128c0.427-0.427 0-85.333 0-85.333h128v-127.573c0.427-0.427 85.333 0 85.333 0v127.573h128v85.333h-128v128zM298.667 576h341.333v-85.333h-341.333v85.333zM298.667 448v-85.333h341.333v85.333h-128zM298.667 320h341.333v-85.333h-341.333v85.333z" />
<glyph unicode="&#xe965;" glyph-name="contact_mail_black_24dp" d="M938.667 832h-853.333c-46.933 0-85.333-38.4-85.333-85.333v-597.333c0-46.933 38.4-85.333 85.333-85.333h853.333c46.933 0 84.907 38.4 84.907 85.333l0.427 597.333c0 46.933-38.4 85.333-85.333 85.333zM938.667 149.333h-853.333v597.333h853.333v-597.333zM896 704h-298.667v-213.333h298.667v213.333zM853.333 618.667l-106.667-74.667-106.667 74.667v42.667l106.667-74.667 106.667 74.667v-42.667zM384 448c70.4 0 128 57.6 128 128s-57.6 128-128 128-128-57.6-128-128 57.6-128 128-128zM384 618.667c23.467 0 42.667-19.2 42.667-42.667s-19.2-42.667-42.667-42.667-42.667 19.2-42.667 42.667 19.2 42.667 42.667 42.667zM640 252.16c0 106.667-169.387 152.747-256 152.747s-256-46.080-256-152.747v-60.16h512v60.16zM233.813 277.333c31.573 21.333 94.72 42.667 150.187 42.667s118.187-20.907 150.187-42.667h-300.373z" />
<glyph unicode="&#xe966;" glyph-name="switch_account_black_24dp" d="M170.667 704h-85.333v-597.333c0-46.933 38.4-85.333 85.333-85.333h597.333v85.333h-597.333v597.333zM597.333 490.667c70.827 0 128 57.173 128 128s-57.173 128-128 128-128-57.173-128-128c0-70.827 57.173-128 128-128zM597.333 661.333c23.467 0 42.667-19.2 42.667-42.667s-19.2-42.667-42.667-42.667-42.667 19.2-42.667 42.667 19.2 42.667 42.667 42.667zM853.333 874.667h-512c-46.933 0-85.333-38.4-85.333-85.333v-512c0-46.933 38.4-85.333 85.333-85.333h512c46.933 0 85.333 38.4 85.333 85.333v512c0 46.933-38.4 85.333-85.333 85.333zM456.107 277.333c40.533 26.88 89.173 42.667 141.227 42.667s100.693-15.787 141.227-42.667h-282.453zM853.333 288.853c-62.72 71.253-153.6 116.48-256 116.48s-193.28-45.227-256-116.48v500.48h512v-500.48z" />
<glyph unicode="&#xe967;" glyph-name="redo_black_24dp" d="M785.067 507.733c-78.933 68.693-181.333 110.933-294.4 110.933-198.4 0-366.080-129.28-424.96-308.053l100.693-33.28c44.8 136.107 172.8 234.667 324.267 234.667 83.2 0 159.147-30.72 218.453-80.213l-154.453-154.453h384v384l-153.6-153.6z" />
<glyph unicode="&#xe968;" glyph-name="thumb_up_black_24dp" d="M384 64h384c35.413 0 65.707 21.333 78.507 52.053l128.853 300.8c3.84 9.813 5.973 20.053 5.973 31.147v85.333c0 46.933-38.4 85.333-85.333 85.333h-269.227l40.533 194.987 1.28 13.653c0 17.493-7.253 33.707-18.773 45.227l-45.227 44.8-281.173-281.173c-15.36-15.36-24.747-36.693-24.747-60.16v-426.667c0-46.933 38.4-85.333 85.333-85.333zM384 576l185.173 185.173-57.173-227.84h384v-85.333l-128-298.667h-384v426.667zM42.667 576h170.667v-512h-170.667z" />
<glyph unicode="&#xe969;" glyph-name="thumb_down_black_24dp" d="M640 832h-384c-35.413 0-65.707-21.333-78.507-52.053l-128.853-300.8c-3.84-9.813-5.973-20.053-5.973-31.147v-85.333c0-46.933 38.4-85.333 85.333-85.333h269.227l-40.533-194.987-1.28-13.653c0-17.493 7.253-33.707 18.773-45.227l45.227-44.8 281.173 281.173c15.36 15.36 24.747 36.693 24.747 60.16v426.667c0 46.933-38.4 85.333-85.333 85.333zM640 320l-185.173-185.173 57.173 227.84h-384v85.333l128 298.667h384v-426.667zM810.667 832h170.667v-512h-170.667z" />
<glyph unicode="&#xe96a;" glyph-name="thumbs_up_down_black_24dp" d="M512 704c0 23.467-19.2 42.667-42.667 42.667h-221.013l28.16 135.68 0.853 9.813c0 13.227-5.547 25.173-14.080 34.133l-33.707 33.707-210.773-210.773c-11.52-11.52-18.773-27.733-18.773-45.227v-277.333c0-35.413 28.587-64 64-64h288c26.453 0 49.067 16.213 58.88 38.827l96.427 225.707c2.987 7.253 4.693 15.36 4.693 23.467v53.333zM426.667 655.787l-88.747-207.787h-252.587v247.040l82.347 82.347-24.32-116.053h283.307v-5.547zM960 533.333h-288c-26.453 0-49.067-16.213-58.88-38.827l-96.427-225.707c-2.987-7.253-4.693-15.36-4.693-23.467v-53.333c0-23.467 19.2-42.667 42.667-42.667h221.013l-28.16-135.68-0.853-10.24c0-13.227 5.547-25.173 14.080-34.133l33.707-33.28 210.773 210.773c11.52 11.52 18.773 27.733 18.773 45.227v277.333c0 35.413-28.587 64-64 64zM938.667 200.96l-82.347-82.347 24.32 116.053h-283.307v5.547l88.747 207.787h252.587v-247.040z" />
<glyph unicode="&#xe96b;" glyph-name="account_circle_black_24dp" d="M512 874.667c-235.52 0-426.667-191.147-426.667-426.667s191.147-426.667 426.667-426.667 426.667 191.147 426.667 426.667-191.147 426.667-426.667 426.667zM301.653 180.053c18.347 38.4 130.133 75.947 210.347 75.947s192.427-37.547 210.347-75.947c-58.027-46.080-130.987-73.387-210.347-73.387s-152.32 27.307-210.347 73.387zM783.36 241.92c-61.013 74.24-209.067 99.413-271.36 99.413s-210.347-25.173-271.36-99.413c-43.52 57.173-69.973 128.427-69.973 206.080 0 188.16 153.173 341.333 341.333 341.333s341.333-153.173 341.333-341.333c0-77.653-26.453-148.907-69.973-206.080zM512 704c-82.773 0-149.333-66.56-149.333-149.333s66.56-149.333 149.333-149.333 149.333 66.56 149.333 149.333-66.56 149.333-149.333 149.333zM512 490.667c-35.413 0-64 28.587-64 64s28.587 64 64 64 64-28.587 64-64-28.587-64-64-64z" />
<glyph unicode="&#xe96c;" glyph-name="verified_black_24dp" d="M981.333 448.427l-104.107 119.040 14.507 157.44-154.027 34.987-80.64 136.107-145.067-62.293-145.067 62.293-80.64-136.107-154.027-34.56 14.507-157.867-104.107-119.040 104.107-119.040-14.507-157.867 154.027-34.987 80.64-136.533 145.067 62.72 145.067-62.293 80.64 136.107 154.027 34.987-14.507 157.44 104.107 119.467zM812.8 385.28l-23.893-27.733 3.413-36.267 7.68-83.2-116.907-26.453-18.773-31.573-42.24-71.68-75.947 32.853-34.133 14.507-33.707-14.507-75.947-32.853-42.24 71.253-18.773 31.573-116.907 26.453 7.68 83.627 3.413 36.267-23.893 27.733-55.040 62.72 55.040 63.147 23.893 27.733-3.84 36.693-7.68 82.773 116.907 26.453 18.773 31.573 42.24 71.68 75.947-32.853 34.133-14.507 33.707 14.507 75.947 32.853 42.24-71.68 18.773-31.573 116.907-26.453-7.68-83.2-3.413-36.267 23.893-27.733 55.040-62.72-54.613-63.147zM430.507 373.333l-98.987 99.413-63.147-63.573 162.133-162.56 313.173 314.027-63.147 63.573z" />
<glyph unicode="&#xe96d;" glyph-name="check_circle_outline_black_24dp" d="M512 874.667c-235.52 0-426.667-191.147-426.667-426.667s191.147-426.667 426.667-426.667 426.667 191.147 426.667 426.667-191.147 426.667-426.667 426.667zM512 106.667c-188.16 0-341.333 153.173-341.333 341.333s153.173 341.333 341.333 341.333 341.333-153.173 341.333-341.333-153.173-341.333-341.333-341.333zM707.84 636.587l-281.173-281.173-110.507 110.080-60.16-60.16 170.667-170.667 341.333 341.333z" />
<glyph unicode="&#xe96e;" glyph-name="lightbulb_black_24dp" d="M384 64c0-23.467 19.2-42.667 42.667-42.667h170.667c23.467 0 42.667 19.2 42.667 42.667v42.667h-256v-42.667zM512 874.667c-164.693 0-298.667-133.973-298.667-298.667 0-101.547 50.773-190.72 128-244.907v-96.427c0-23.467 19.2-42.667 42.667-42.667h256c23.467 0 42.667 19.2 42.667 42.667v96.427c77.227 54.187 128 143.36 128 244.907 0 164.693-133.973 298.667-298.667 298.667zM633.6 401.067l-36.267-25.6v-98.133h-170.667v98.133l-36.267 25.6c-57.6 40.107-91.733 105.387-91.733 174.933 0 117.76 95.573 213.333 213.333 213.333s213.333-95.573 213.333-213.333c0-69.547-34.133-134.827-91.733-174.933z" />
<glyph unicode="&#xe96f;" glyph-name="logout_black_24dp" d="M725.333 618.667l-60.16-60.16 67.413-67.84h-348.587v-85.333h348.587l-67.413-67.413 60.16-60.587 170.667 170.667-170.667 170.667zM213.333 746.667h298.667v85.333h-298.667c-46.933 0-85.333-38.4-85.333-85.333v-597.333c0-46.933 38.4-85.333 85.333-85.333h298.667v85.333h-298.667v597.333z" />
<glyph unicode="&#xe970;" glyph-name="search_black_24dp" d="M661.333 362.667h-33.707l-11.947 11.52c41.813 48.64 66.987 111.787 66.987 180.48 0 153.173-124.16 277.333-277.333 277.333s-277.333-124.16-277.333-277.333 124.16-277.333 277.333-277.333c68.693 0 131.84 25.173 180.48 66.987l11.52-11.947v-33.707l213.333-212.907 63.573 63.573-212.907 213.333zM405.333 362.667c-106.24 0-192 85.76-192 192s85.76 192 192 192 192-85.76 192-192-85.76-192-192-192z" />
<glyph unicode="&#xe971;" glyph-name="lock_black_24dp" d="M768 618.667h-42.667v85.333c0 117.76-95.573 213.333-213.333 213.333s-213.333-95.573-213.333-213.333v-85.333h-42.667c-46.933 0-85.333-38.4-85.333-85.333v-426.667c0-46.933 38.4-85.333 85.333-85.333h512c46.933 0 85.333 38.4 85.333 85.333v426.667c0 46.933-38.4 85.333-85.333 85.333zM384 704c0 70.827 57.173 128 128 128s128-57.173 128-128v-85.333h-256v85.333zM768 106.667h-512v426.667h512v-426.667zM512 234.667c46.933 0 85.333 38.4 85.333 85.333s-38.4 85.333-85.333 85.333-85.333-38.4-85.333-85.333 38.4-85.333 85.333-85.333z" />
<glyph unicode="&#xe972;" glyph-name="fact_check_black_24dp" d="M853.333 832h-682.667c-46.933 0-85.333-38.4-85.333-85.333v-597.333c0-46.933 38.4-85.333 85.333-85.333h682.667c46.933 0 85.333 38.4 85.333 85.333v597.333c0 46.933-38.4 85.333-85.333 85.333zM853.333 149.333h-682.667v597.333h682.667v-597.333zM828.16 515.413l-60.587 60.587-135.253-135.253-60.16 60.587-60.16-60.16 120.32-121.173zM213.333 661.333h213.333v-85.333h-213.333v85.333zM213.333 490.667h213.333v-85.333h-213.333v85.333zM213.333 320h213.333v-85.333h-213.333v85.333z" />
<glyph unicode="&#xe973;" glyph-name="folder_black_24dp" d="M391.253 704l85.333-85.333h376.747v-426.667h-682.667v512h220.587zM426.667 789.333h-256c-46.933 0-84.907-38.4-84.907-85.333l-0.427-512c0-46.933 38.4-85.333 85.333-85.333h682.667c46.933 0 85.333 38.4 85.333 85.333v426.667c0 46.933-38.4 85.333-85.333 85.333h-341.333l-85.333 85.333z" />
<glyph unicode="&#xe974;" glyph-name="description_black_24dp" d="M341.333 277.333h341.333v-85.333h-341.333zM341.333 448h341.333v-85.333h-341.333zM597.333 874.667h-341.333c-46.933 0-85.333-38.4-85.333-85.333v-682.667c0-46.933 37.973-85.333 84.907-85.333h512.427c46.933 0 85.333 38.4 85.333 85.333v512l-256 256zM768 106.667h-512v682.667h298.667v-213.333h213.333v-469.333z" />
<glyph unicode="&#xe975;" glyph-name="find_in_page_black_24dp" d="M597.333 874.667h-341.333c-46.933 0-84.907-38.4-84.907-85.333l-0.427-682.667c0-46.933 37.973-85.333 84.907-85.333h512.427c46.933 0 85.333 38.4 85.333 85.333v512l-256 256zM256 789.333h298.667l213.333-213.333v-366.080l-78.507 78.507c54.613 82.773 45.653 194.987-27.307 267.947-41.387 41.387-95.573 62.293-150.187 62.293s-108.8-20.907-150.613-62.293c-83.2-83.2-83.2-218.027 0-300.8 41.387-41.387 96-62.293 150.613-62.293 40.96 0 81.92 11.947 117.333 35.413l121.6-122.027h-494.933v682.667zM602.027 315.733c-23.893-23.893-55.893-37.547-90.027-37.547s-66.133 13.227-90.027 37.547c-23.893 23.893-37.547 55.893-37.547 90.027s13.227 66.133 37.547 90.027c23.893 24.32 55.893 37.547 90.027 37.547s66.133-13.227 90.027-37.547c23.893-23.893 37.547-55.893 37.547-90.027s-13.227-66.133-37.547-90.027z" />
<glyph unicode="&#xe976;" glyph-name="pending_actions_black_24dp" d="M725.333 448c-117.76 0-213.333-95.573-213.333-213.333s95.573-213.333 213.333-213.333c117.76 0 213.333 95.573 213.333 213.333s-95.573 213.333-213.333 213.333zM795.733 134.4l-91.733 91.733v136.533h42.667v-119.040l78.933-78.933-29.867-30.293zM768 832h-135.68c-17.92 49.493-64.853 85.333-120.32 85.333s-102.4-35.84-120.32-85.333h-135.68c-46.933 0-85.333-38.4-85.333-85.333v-640c0-46.933 38.4-85.333 85.333-85.333h260.693c-25.173 24.32-45.653 53.333-60.587 85.333h-200.107v640h85.333v-128h341.333v128h85.333v-216.747c30.293-4.267 58.88-13.227 85.333-25.6v242.347c0 46.933-38.4 85.333-85.333 85.333zM512 746.667c-23.467 0-42.667 19.2-42.667 42.667s19.2 42.667 42.667 42.667c23.467 0 42.667-19.2 42.667-42.667s-19.2-42.667-42.667-42.667z" />
<glyph unicode="&#xe977;" glyph-name="login_black_24dp" d="M469.333 661.333l-59.733-59.733 110.933-110.933h-435.2v-85.333h435.2l-110.933-110.933 59.733-59.733 213.333 213.333-213.333 213.333zM853.333 149.333h-341.333v-85.333h341.333c46.933 0 85.333 38.4 85.333 85.333v597.333c0 46.933-38.4 85.333-85.333 85.333h-341.333v-85.333h341.333v-597.333z" />
</font>
</defs>
</svg>
